ForumBuzz

Earn Money for Post All Hollywood Movies and Tamil Movies and Mallu Movies and Bollywood, Tollywood Movies , Games , Softwares,Musics,Without Any Restriction

Latest topics

» American Pie Presents Band Camp (2005)-300MB
Mon May 09, 2011 9:56 am by chellam

» Underworld (2003) HDRip x264 400MB-1 LINK
Mon May 09, 2011 9:30 am by chellam

» American Pie Presents The Naked Mile (2006)-300MB-1 LINK
Mon May 09, 2011 9:10 am by chellam

» American Pie 1 (1999) 720p-300MB-1 LINK
Mon May 09, 2011 8:37 am by chellam

» Sunshine (2007) 720p -300MB-1 LINK
Mon May 09, 2011 7:05 am by chellam

»  Disney's The Jungle Book (1967)- 1 LINK- 290MB
Sun May 08, 2011 6:42 pm by chellam

» Success Stories
Sun May 08, 2011 12:31 am by Admin

» Introduction
Sun May 08, 2011 12:23 am by Admin

» How to request payment
Sun May 08, 2011 12:08 am by Admin

Most active topic starters

Top posting users this month


    [MULTI] Black.Swan.2010.400MB-1 LINK-ONLINE MOVIE

    Share
    avatar
    chellam

    Posts : 37
    Join date : 2011-05-06

    [MULTI] Black.Swan.2010.400MB-1 LINK-ONLINE MOVIE

    Post  chellam on Fri May 06, 2011 1:41 am









    Format : AVI
    Format/Info : Audio Video Interleave
    File size : 699 MiB
    Duration : 1h 48mn
    Overall bit rate : 904 Kbps
    Writing application : Nandub v1.0rc2
    Writing library : Nandub build 1853/release

    Video
    ID : 0
    Format : MPEG-4 Visual
    Format profile : Advanced Simple@L5
    Format settings, BVOP : 2
    Format settings, QPel : No
    Format settings, GMC : No warppoints
    Format settings, Matrix : Default (H.263)
    Codec ID : XVID
    Codec ID/Hint : XviD
    Duration : 1h 48mn
    Bit rate : 792 Kbps
    Width : 640 pixels
    Height : 272 pixels
    Display aspect ratio : 2.35:1
    Frame rate : 23.976 fps
    Color space : YUV
    Chroma subsampling : 4:2:0
    Bit depth : 8 bits
    Scan type : Progressive
    Compression mode : Lossy
    Bits/(Pixel*Frame) : 0.190
    Stream size : 612 MiB (88%)
    Writing library : XviD 1.2.1 (UTC 2008-12-04)

    Audio
    ID : 1
    Format : MPEG Audio
    Format version : Version 1
    Format profile : Layer 3
    Mode : Joint stereo
    Mode extension : MS Stereo
    Codec ID : 55
    Codec ID/Hint : MP3
    Duration : 1h 48mn
    Bit rate mode : Variable
    Bit rate : 100 Kbps
    Nominal bit rate : 110 Kbps
    Channel(s) : 2 channels
    Sampling rate : 44.1 KHz
    Compression mode : Lossy
    Stream size : 77.6 MiB (11%)
    Alignment : Aligned on interleaves
    Interleave, duration : 26 ms (0.63 video frame)
    Interleave, preload duration : 219 ms
    Writing library : LAME3.98r
    Encoding settings : -m j -V 4 -q 2 -lowpass 15.6 --abr 110

    Source was 720p Blueray, wrote a script with a couple filters
    and Encoded with MeGUI , hope you njoy!![/code]































    Code:
    download
    Code:
    fileserve
    Code:
    http://www.fileserve.com/file/4jf94aU
    Code:
    filesonic
    Code:
    http://www.filesonic.com/file/885886944
    Code:
    duckload
    Code:
    http://www.duckload.com/dl/cMk72
    Code:
    watch online movie
    Code:
    http://www.videobb.com/video/UyNCEEygtT83

    Like My Thread? Want to Support My Work?

    PLEASE SAY THANK YOU - IT WONT TAKE MUCH TIME AND IT WILL KEEP THE TOPIC ALIVE






    ### SINGLE LINK ###

    cHeLLaM MovIeS PreSentZ





    *Took 4 Hours to Upload
    *Took 3 Minutes to Scan
    *Took 9 Minutes to Create Topic/Screens
    *Takes 6 Seconds to say "Thank You", or 4 seconds to say "Whoooo" Smile




    Support:
    Well just , Thanks Would Do
    Link checked on Wed Mar 30, 2011 12:29 pm (GMT) [Linkchecker Bot][i]

      Current date/time is Sat Sep 23, 2017 7:07 am